#TITLE:Captain Jack;
#SUBTITLE:~AMR original~;
#ARTIST:Captain Jack;
#TITLETRANSLIT:;
#SUBTITLETRANSLIT:;
#ARTISTTRANSLIT:;
#CREDIT:;
#BANNER:CAPTAIN JACK (GRANDALE REMIX).png;
#BACKGROUND:CAPTAIN JACK (GRANDALE REMIX)-bg.png;
#LYRICSPATH:;
#CDTITLE:CD.png;
#MUSIC:Captain Jack (Grandale Long Mix).mp3;
#OFFSET:-6.200;
#SAMPLESTART:24.014;
#SAMPLELENGTH:12.000;
#SELECTABLE:YES;
#BPMS:0.000=170.000;
#STOPS:;
#BGCHANGES:;
// cache tags:
#FIRSTBEAT:0.000;
#LASTBEAT:544.500;
#SONGFILENAME:Songs/Chilean Keyboard Megapack 3/(AMR) Captain Jack -full-/Captain Jack (Grandale Long Mix).sm;
#HASMUSIC:1;
#HASBANNER:1;
#MUSICLENGTH:200.672;
// end cache tags

//---------------dance-single - Copied from----------------
#NOTES:
     dance-single:
     Copied from:
     Challenge:
     11:
     1.000,1.000,1.000,0.249,0.608,1119.000,360.000,50.000,0.000,31.000:
2000
0000
0000
0000
0001
3000
0001
0000
0100
0000
0010
0000
1000
0001
0000
0010
,
0200
0000
0000
0300
1000
0000
0001
0010
0001
0000
0010
0000
0100
0000
1000
0001
,
2000
0000
0000
3000
0001
0000
0010
0000
0100
0000
0010
0000
0001
1000
0000
0010
,
0100
0000
0000
0000
2000
0000
3001
0000
0001
0000
1000
0001
1000
0000
0010
0100
,
0220
0000
0330
0000
1000
0000
0100
0000
0010
0000
0001
0000
0100
0010
0000
0010
,
0100
0000
0000
0000
1000
0000
0100
0000
0010
0000
0001
1000
0001
0000
0010
0100
,
0020
0000
0000
0030
1000
0000
0100
0000
1000
0000
0100
0000
0010
0000
0001
0000
,
1001
0100
0001
0010
1000
0001
1000
0001
0010
0100
1000
0010
0100
0001
0100
1000
,
1001
0100
0011
0010
1100
0001
1010
0010
,
0101
0100
0011
0010
1100
1000
0110
0001
,
1100
0100
1010
0001
0110
1000
0011
0010
,
0110
0000
0100
0000
1010
0000
0100
0000
0011
0000
0010
0001
0100
0000
0010
0100
,
1001
0010
1100
0100
0011
1000
0110
0001
,
1100
0100
1010
0010
0110
0100
0101
1000
,
1001
0010
0110
0001
1001
0010
0011
0100
,
0110
1000
0100
0010
0011
0100
1000
0001
1100
0100
0010
0001
1001
0100
0010
0001
,
2200
0000
0000
0000
,
0000
0000
0000
0000
,
3301
0000
0100
0000
0001
0000
0010
0000
0001
0100
0000
0000
1001
0000
0100
0000
,
1001
0000
0010
0000
1001
0000
0010
0000
0011
0000
1100
0000
0000
0000
0001
0010
,
1100
0000
0001
0000
0010
0100
0000
0100
1000
0000
1000
0100
0000
0100
0010
0000
,
0100
0000
0001
0000
0010
0100
0000
0100
0001
0000
0001
0010
0000
0100
0001
0000
,
1001
0000
1000
0000
0100
0010
0000
1000
0001
0000
0100
0010
0000
0001
0100
0000
,
1001
0000
0100
0000
0001
0100
0000
0001
0100
0000
0100
0010
0100
0000
0010
0000
,
1001
0000
1000
0000
0100
0010
0000
0010
0001
0000
0001
0100
0000
0010
0100
0000
,
0011
0000
0010
0000
0001
0100
0000
0100
0010
0000
1000
0100
0000
0100
1000
0000
,
2001
0000
0010
0000
0001
0100
0000
0100
0001
0000
0001
0100
0000
0100
0001
0000
,
3101
0010
0001
0010
0001
0010
0001
0010
0001
0010
0001
0010
0001
0010
0001
0010
,
0011
0100
1010
0010
1010
0110
0101
0100
,
1001
0010
0011
0100
0011
0110
1100
0010
,
1001
0000
1100
0000
1001
0000
0010
0001
0100
0000
1010
0000
0101
0000
0010
0000
,
1001
0000
0101
0000
1001
0000
0010
1000
0100
0000
0010
0100
1001
0000
1000
0001
,
0110
1010
0101
0100
0011
0101
0011
0100
,
0001
1000
0010
0000
1100
0000
0010
0000
0011
0000
1100
0000
1001
0000
0100
0000
,
1001
0000
0011
0000
0110
0000
1000
0001
0010
0000
1010
0000
0101
0000
1001
0000
,
0001
0100
0010
1000
0001
0010
0100
1000
0001
0100
0010
1000
0001
0010
0100
1000
,
0011
0001
1001
1000
1001
0010
0100
1000
,
1001
0001
1001
0100
1001
0100
0001
0110
,
1100
1010
0110
0101
1001
0100
0010
1001
,
1100
0000
1001
0000
0101
0000
1001
0000
0110
0000
0001
0010
0100
0000
1000
0010
,
1001
0100
0011
0100
1010
0001
0010
0101
,
0011
0100
1001
0010
1001
0010
0100
1001
,
0001
0010
1000
0000
0100
0000
0001
0000
0010
0000
0011
0000
1100
0000
1000
0000
,
0100
0010
0001
0000
0100
0000
0010
0000
1000
0001
1000
0100
1000
0001
1000
0100
,
2002
0000
0000
0000
0000
0000
0000
0000
0000
0000
0000
0000
3003
0000
0001
1000
,
0001
0000
0010
0000
0100
0000
1000
0000
0001
0010
0000
0000
1001
0000
0011
0000
,
1100
1010
0110
0011
0011
1100
0000
0000
,
1001
0000
0100
0000
0010
0001
0000
0001
0100
0000
0100
0010
0000
1000
0100
0010
,
2001
0100
0001
0010
0001
0100
0001
0010
,
3101
0000
1010
0000
1010
0000
0101
0000
0001
0010
0000
0000
1100
0000
0011
0000
,
0101
1010
0110
0011
1001
0110
0000
0000
,
1000
0100
0001
1000
0100
0001
1000
0100
0011
0100
1000
0100
0011
0100
1000
0100
,
0011
0110
1100
0110
0011
0110
0011
0000
,
1100
0110
1100
0110
1100
0110
1101
0000
,
0110
0000
1001
0000
0110
0000
0000
0001
0011
0000
0110
0000
1100
0000
0000
0000
,
1001
0000
0011
0000
0011
0000
1100
0000
0110
0000
0001
1000
0001
0000
1000
0100
,
1001
0011
0110
1100
1010
0110
0101
0000
,
1001
1010
0110
0101
0011
0110
1100
0000
,
0011
0000
0110
0000
1100
0000
0000
0001
1001
0000
0110
0000
1001
0000
0000
1000
,
1001
0010
0100
1000
0101
0010
0100
0010
1100
0001
0100
1000
0100
0010
0001
0100
,
0110
1000
0100
0010
0010
0101
0011
0101
,
1010
1100
0220
0000
0000
0000
0000
0000
,
0000
1000
0001
0001
,
1330
0001
0100
0001
0000
0010
1000
0001
,
0010
0100
1000
0010
0000
0001
0100
1000
,
0010
0100
0001
0010
0000
1000
0100
0010
,
0001
0010
0100
1000
0000
0001
0001
0010
,
0001
0100
1000
0001
0100
1000
0001
0100
0010
1000
0001
0010
0100
1000
0001
0010
,
1100
0000
1100
0000
0100
0010
0000
0001
0010
0000
0010
0100
0000
0100
0001
0100
,
1000
0000
0100
0000
0010
0001
0000
0001
0010
0000
0010
1000
0000
0001
0100
1000
,
0001
0000
1000
0000
0100
0100
0000
0010
0010
0000
0001
0001
0000
1000
1000
0001
,
0001
0000
0010
0000
0001
1000
0000
0010
0100
0000
0001
1000
0100
0000
0001
0100
,
0020
1000
1000
1000
1000
1000
1000
1000
,
0032
0010
0010
0010
1003
0000
0000
0000
,
2020
0000
0000
0000
,
3130
0100
0001
0001
0010
0010
0100
0100
1000
1000
0100
0100
1000
1000
0100
0010
,
2001
0000
3100
0000
0010
0010
0010
0000
,
1002
0000
0103
0000
0001
0010
0100
0000
,
1000
0000
0100
0000
0010
0000
0001
0001
0001
0000
0010
0000
0100
0000
0000
0000
,
0010
0000
0001
0000
0100
0000
0010
0010
0010
0000
1000
0000
0100
0000
0000
0000
,
1000
0100
1000
1000
0110
1001
0011
0000
,
0010
0001
0100
0010
1010
0110
0101
0000
,
1001
0011
0110
1010
0110
1001
0110
0000
,
0011
1000
0101
1000
0011
1000
0101
1000
0011
1000
0101
1000
0011
1000
0001
1000
,
0011
0000
0100
0000
1010
0000
0100
0000
1001
0000
0001
0000
0001
0000
1000
0010
,
0110
0100
0101
0100
1100
0010
0011
1100
,
1010
0101
0110
1001
0011
0100
0010
0011
,
1100
0000
0110
0000
0011
0000
0110
0000
0111
0000
1000
0000
1000
0000
0001
0010
,
1100
0100
0011
0100
0101
0100
1010
0101
,
1001
0100
0011
0100
1010
0100
0001
1000
,
0010
0001
0100
0000
1010
0000
0101
0000
1010
0000
0100
0000
0010
0000
1001
0000
,
0001
1000
0001
1000
0001
1000
0001
1000
0001
1000
0001
1000
0001
1000
0001
1000
,
0022
0000
0000
0000
0000
0000
0000
0000
0000
0000
0000
0000
0033
0000
0010
1000
,
0100
0000
0100
0000
0010
0000
0001
0000
0100
0010
0000
0000
0011
0000
1100
0000
,
1010
0101
0110
0011
1100
0110
0001
0100
,
1000
0100
0010
0100
1000
0010
0100
0010
,
2002
0000
0000
0000
,
3103
0000
0001
0000
0010
0000
0100
0000
0011
0100
0000
0000
1000
0000
1000
0000
,
0001
0001
0010
0010
0100
1001
0000
0000
,
1000
0010
0001
1000
0010
0001
1000
0010
0011
1000
0010
0100
1001
0100
0010
0001
,
1100
0000
0100
0000
0011
0000
0001
0000
0011
0000
0001
0000
0102
0000
0000
0003
,
1001
0010
1001
0100
1001
0010
2010
0100
,
3101
0000
1001
0000
1100
0000
0000
0001
1000
0000
1001
0000
0102
0000
0000
0003
,
1001
0000
0011
0000
1001
0000
1010
0000
1001
0000
0011
0000
1101
0000
0001
0010
,
0110
0011
1100
0110
0011
0110
1100
0000
,
1010
0110
1010
0110
0101
0011
0110
0000
,
1200
0300
0120
0030
0012
0003
0000
0010
0021
0030
0210
0300
2100
3000
0000
0001
,
1001
0000
0010
0000
1001
0000
0110
0000
0100
0010
0100
0010
0100
1000
0010
0100
,
1001
1001
0011
0110
1101
1001
0011
1100
,
0011
1100
2002
0000
0000
0000
0000
0000
,
0000
0000
0000
0000
0000
0000
0000
0000
0000
0000
0000
0000
0000
0000
0000
3003
0002
0000
0000
0000
0000
0000
0000
0000
0000
0000
0000
0000
0003
0000
0000
0000
2000
0000
0000
0000
0000
0000
0000
0000
0000
0000
0000
0000
3000
0000
0000
0000
2000
0000
0000
0000
0000
0000
0000
0000
0000
0000
0000
0000
3000
0000
0000
0000
,
0002
0000
1000
0003
1000
0000
1000
0000
0000
0000
0100
0000
0010
1000
0001
0000
,
0100
0010
1000
0001
0000
1001
0110
0011
,
1100
1010
0202
0000
0000
0000
0000
0000
,
1000
1000
1000
1000
1000
1000
1303
0000
,
0100
0010
0001
0100
0010
1000
0100
0010
0001
0100
0010
1000
0100
0010
0001
0100
,
0002
0003
1000
0000
0001
0000
0000
0000
0012
0000
0000
1100
0000
0000
0113
0000
,
0000
0000
1000
0000
0001
0000
0000
0000
0021
0000
0000
1100
0000
0000
1031
0000
,
0000
0000
0011
0000
1100
0000
0000
0000
2001
0000
0000
0110
0000
0000
3011
0000
,
0000
0000
1000
0000
0010
0000
0000
0000
1001
0000
0000
0110
0000
0000
1000
1000
,
0011
0000
0011
0000
1100
0000
0000
0000
0110
0000
0000
0011
0000
0000
0101
0000
,
0000
0000
1000
0000
0010
0000
0000
0000
0011
0000
0000
0110
0000
0000
0011
0000
,
0000
0000
1000
0000
0001
0000
0000
0000
1101
0000
0000
0111
0000
0000
1110
0000
,
0000
0000
1000
0000
0010
0000
0000
0000
1100
0000
0000
0011
0000
0000
0101
0000
,
0000
0000
1000
0000
0001
0010
0000
0000
1001
0000
0000
0101
0000
0000
0101
0000
,
0000
0000
1000
0000
0010
0100
0000
0000
0011
0000
0000
0011
0000
0000
1001
0000
,
0000
0000
1000
0000
0100
0010
0000
0000
0001
0000
0010
0100
0000
0100
0010
0001
,
0100
0000
0100
0000
0100
0010
0000
0000
1001
0000
0001
0010
0000
0010
0001
0100
,
0010
0000
0001
0000
0001
0010
0000
0000
0110
0000
0001
0010
0000
0010
0001
0100
,
0010
0000
1000
0000
0100
0010
0000
0000
0011
0000
0010
0100
0000
0100
0010
0001
,
0010
0000
0001
0000
0010
0100
0000
0000
1001
0000
0110
0001
0000
0001
0010
0100
,
1000
0100
0010
0100
1000
0010
0100
0001
0010
0100
1000
0001
0100
1000
0010
0100
,
2002
0000
0000
0000
,
0000
0000
0000
0000
,
3013
0000
0010
0000
0010
0000
0010
0000
0100
0010
0000
0000
0001
0000
0010
0000
,
0100
1000
0100
0010
0100
2002
0000
0000
,
0000
3003
0000
0000
0000
0000
0000
0000
;
